FaderPro – In The Studio with Ferry Corsten

With over 25 years of studio experience, a hit-studded discography and an undeniably impressive track record as a composer, it’s safe to say that electronic music icon Ferry Corsten knows a thing or two about music production.
The Dutchman has been among his scene’s most authorative figures since he released seminal Trance classics such as ‘Out Of The Blue’ (as System F) and ‘Gouryella’ (as Gouryella), and he now steps up to the plate to teach his craft to the next generation of dance music producers through his first-ever masterclass for Armada University and FaderPro.
Are you ready to get in the studio with Ferry Corsten?
What’s in the course?
Throughout 4.5 hours of top-level music production, this award-winning producer builds an ’80s-style track from scratch, teaching his workflow, building sounds from the ground up, creating unique risers, playing with crazy effects and building a high-energy record that will smash every sound system to bits.
Ferry is a natural teacher, explaining things in an easy-to-understand way, ensuring that this course has everything you need to start taking the next step in your music production journey.
Content:
– 1. The Start Of The Project.mp4
– 2. The Lead Bass Synth.mp4
– 3. The Snare Drum.mp4
– 4. The Hi-Hats.mp4
– 5. Adding Drive To The Main Loop.mp4
– 6. The Synth Melodies.mp4
– 7. Creating Tension With Pads.mp4
– 8. Recording And Processing Vocals.mp4
– 9. The Pluck Synth.mp4
– 10. The Arrangement – Part 1.mp4
– 11. The Arrangement – Part 2.mp4
– 12. The Arrangement – Part 3.mp4
– 13. The Arrangement – Part 4.mp4
– 14. The Sounds Effects.mp4
– 15. The Master Bus.mp4
– 16. The Breakdown And Drop.mp4
– 17 Getting The Levels Right.mp4
– 18. The Mixdown – Part 1.mp4
– 19. The Mixdown – Part 2.mp4
– 20. The Final Tweaks.mp4
– 21. The Final Step.mp4
 
mediainfo
General
Complete name : 1. The Start Of The Project.mp4
Format : MPEG-4
Format profile : Base Media
Codec ID : isom (isom/iso2/avc1/mp41)
File size : 357 MiB
Duration : 14 min 36 s
Overall bit rate mode : Variable
bit Overall rate : 3412 kb/s
Writing application : Lavf58.22.100
Video
ID : 1
Format : AVC
Format/Info : Advanced Video Codec
Format profile : [email protected]
Format settings : CABAC / 3 Ref Frames
Format settings, CABAC : Yes
Format settings, Reference : 3 frames
Codec ID : avc1
Codec ID/ Info : Advanced Video Coding
Duration : 14 min 36 s
Bit rate : 3 214 kb/s
Width : 1 920 pixels
Height : 1 080 pixels
Display aspect ratio : 16:9
Frame rate mode : Constant
Frame rate : 25.000 FPS
Color space : YUV
Chroma subsampling : 4:2:0
Bit depth : 8 bits
Scan type : Progressive
Bits/(Pixel*Frame) : 0.062
Stream size : 336 MiB (94%)
Color range : Limited
Color primaries : BT.709
Transfer characteristics : BT.709
Matrix coefficients : BT.709
Codec configuration box : avcC
Audio
ID : 2
Format : AAC LC
Format/Info : Advanced Audio Codec Low Complexity
Codec ID : mp4a-40-2
Duration : 14 min 36 s
Bit rate mode : Variable
Bit rate : 192 kb/s
Maximum bit rate : 195 kb/ s
Channel(s) : 2 channels
Channel layout : LR
Sampling rate : 48.0 kHz
Frame rate : 46.875 FPS (1024 SPF)
Compression mode : Lossy
Stream size : 20.1 MiB (6%)
Default : Yes
Alternate group : 1

Leave a Reply

Your email address will not be published.