Skip to main content

FaderPro – Masterclass with Roger Sanchez

DJ masterclass course taught by legendary producer and expert DJ, Roger Sanchez. Using Pioneer’s industry standard gear, go beyond track-to-track mixing into full creative, live remixing, effects and more!
This course includes 56 tracks (3+ gigs) of high quality WAV files from Stealth and Toolroom!
To say Roger Sanchez is a legendary superstar DJ somehow feels like an understatement. It would not paint the complete picture of a DJ who has worked incredibly hard, stayed true to his roots, and is as in-demand as ever. His DJ shows have also gone into overdrive across all five continents, demonstrating a growing hunger for his characteristic take on house music. He has created a kind of experience that only comes from two decades of DJing.
Content:
Folders:
– DJ Masterclass – Tracks
– Mini DJ Set (Extra)
Videos:
– 1. Introduction.mp4
– 2. Loops and Hot Cues.mp4
– 3. Playing with USBs.mp4
– 4. How to approach sets.mp4
– 5. Pre for live remixing.mp4
– 6. Updating playlists and ratings .mp4
– 7. More on Hot Cues.mp4
– 8. Tech Rider and Equipment.mp4
– 9. Preferred Settings.mp4
– 10. The DJ Mixer.mp4
– 11. Sound Color and Beat FX.mp4
– 12. Transitions. mp4
– 13. Jog Wheel and Pitch Adjust.mp4
– 14. Channel Levels.mp4
– 15. EQ and ISO Techiques.mp4
– 16. Ideas for Sound Color FX.mp4
– 17. Using Loops.mp4
– 18. Using Vinyl Mode .mp4
– 19. Using Reverse.mp4
– 20. Advanced A Cappella Techniques.mp4
– 21. Advanced FX Techniques.mp4
– 22. Four Deck Mixing.mp4
– 23. Conclusion.mp4

mediainfo
General
Complete name : Introduction.mp4
Format : MPEG-4
Format profile : Base Media / Version 2
Codec ID : mp42 (mp42/mp41/isom/avc1)
File size : 68.2 MiB
Duration : 7 min 40 s
Overall bit rate mode : Variable
Overall bit rate : 1 243 kb/s
Encoded date : UTC 2017-03-10 07:45:12
Tagged date : UTC 2017-03-10 07:45:12
Video
ID : 1
Format : AVC
Format/Info : Advanced Video Codec
Format profile : [email protected]
Format settings : CABAC / 5 Ref Frames
Format settings, CABAC : Yes
Format settings, Reference : 5 frames
Codec ID : avc1
Codec ID/ Info : Advanced Video Coding
Duration : 7 min 40 s
Bit rate : 982 kb/s
Width : 1 280 pixels
Height : 720 pixels
Display aspect ratio : 16:9
Frame rate mode : Constant
Frame rate : 29.970 (30000/1001) FPS
Color space : YUV
Chroma subsampling : 4:2:0
Bit depth : 8 bits
Scan type : Progressive
Bits/(Pixel*Frame) : 0.036
Stream size : 53.9 MiB (79%)
Writing library : x264 core 148 r10 90a61ec
Encoding settings : cabac=1 / ref=5 / deblock=1:0:0 / analyse=0x3:0x113 / me=hex / subme=8 / psy=1 / psy_rd=1.00:0.00 / mixed_ref=1 / me_range=16 / chroma_me=1 / trellis=2 / 8x8dct=1 / cqm=0 / deadzone=21,11 / fast_pskip=1 / chroma_qp_offset=-2 / threads=22 / lookahead_threads=3 / sliced_threads=0 / nr=0 / decimate= 1 / interlaced=0 / bluray_compat=0 / stitchable=1 / constrained_intra=0 / bframes=3 / b_pyramid=2 / b_adapt=1 / b_bias=0 / direct=3 / weightb=1 / open_gop=0 / weightp=2 / keyint=infinite / keyint_min=29 / scenecut=40 / intra_refresh=0 / rc_lookahead=50 / rc=crf / mbtree=1 / crf=20.0 / qcomp=0.60 / qpmin=5 / qpmax=69 / qpstep=4 / vbv_maxrate= 2750 / vbv_bufsize=7500 / crf_max=0.0 / nal_hrd=none / filler=0 / ip_ratio=1.40 / aq=1:1.00
Encoded date : UTC 2017-03-10 07:45:12
Tagged date : UTC 2017-03-10 07:45:12
Color range : Limited
Color primaries : BT.709
colour_primaries_Original : BT.709
Transfer characteristics : BT.709
transfer_characteristics_Or : BT.709
Matrix coefficients : BT.709
matrix_coefficients_Origina : BT. 709
Codec configuration box : avcC
Audio
ID : 2
Format : AAC LC
Format/Info : Advanced Audio Codec Low Complexity
Codec ID : mp4a-40-2
Duration : 7 min 40 s
Bit rate mode : Variable
Bit rate : 256 kb/s
Channel(s) : 2 channels
Channel layout : LR
Sampling rate : 48.0 kHz
Frame rate : 46.875 FPS (1024 SPF)
Compression mode : Lossy
Stream size : 14.1 MiB (21%)
Encoded date : UTC 2017-03-10 07:45:12
Tagged date : UTC 2017 -03-10 07:45:12

Leave a Reply

Your email address will not be published.