FaderPro – Remixing and Sound Design with Ørjan Nilsen

Ørjan Nilsen is a Norwegian dance music icon who rose to fame over a decade ago before smashing into the DJ Top 100 at #32 in 2011. Thanks to his knack for producing epic, chunky and groovy bangers, he made it onto the shortlist of Armada Music, Armin van Buuren and countless other top-flight labels and artists in the scene. Thanks to a lot of raw talent, hard work and consistency, he has since remained one of the biggest names in dance music and a leading figure at every major dance event in the world.
After an incredibly successful first course and a high demand from students for more knowledge from the man, Ørjan now delivers a “How To” on remixing. As he shows and tells how he went about remixing Loud Luxury’s global smash hit ‘Body’, he covers key topics like vocal processing, building a drop, choosing the right drums, layering sounds and much more.
And if that wasn’t already something to get excited for, Ørjan also shows you the ropes of sound design. In this second part of the course, he shows you how he went about making his signature sound(s), teaching topics such as creating his signature kicks and “Ørjan Trance bass lines”, his renowned lead sounds, the chain bus and his acclaimed plucks and arps.
Content:
– 1. Making the drums .mp4
– 2. Layering the main sounds.mp4
– 3. Grouping Sounds.mp4
– 4. Building the Drop.mp4
– 5. Vocal Processing.mp4
– 6. The Master Channel .mp4
– 7. Creating the Kick and Bassline.mp4
– 8. Creating the Lead Sound.mp4
– 9. Creating the Sidechain.mp4
– 10. Creating the classic.mp4
– 11. Creating the Plucks and Arps.mp4
 
mediainfo
General
Complete name :1. Making the drums .mp4
Format : MPEG-4
Format profile : Base Media
Codec ID : isom (isom/iso2/avc1/mp41)
File size : 272 MiB
Duration : 11 min 34 s
Overall bit rate mode : Variable
Overall bit rate : 3 282 kb/s
Writing application : Lavf58.22.100
Video
ID : 1
Format : AVC
Format/Info : Advanced Video Codec
Format profile : [email protected]
Format settings : CABAC / 3 Ref Frames
Format settings, CABAC : Yes
Format settings, Reference : 3 frames
Codec ID : avc1
Codec ID/ Info : Advanced Video Coding
Duration : 11 min 34 s
Bit rate : 3 084 kb/s
Width : 1 920 pixels
Height : 1 080 pixels
Display aspect ratio : 16:9
Frame rate mode : Constant
Frame rate : 25.000 FPS
Color space : YUV
Chroma subsampling : 4:2:0
Bit depth : 8 bits
Scan type : Progressive
Bits/(Pixel*Frame) : 0.059
Stream size : 255 MiB (94%)
Codec configuration box : avcC
Audio
ID : 2
Format : AAC LC
Format/Info : Advanced Audio Codec Low Complexity
Codec ID : mp4a-40-2
Duration : 11 min 34 s
Bit rate mode : Variable
Bit rate : 192 kb/s
Maximum bit rate : 208 kb/ s
Channel(s) : 2 channels
Channel layout : LR
Sampling rate : 48.0 kHz
Frame rate : 46.875 FPS (1024 SPF)
Compression mode : Lossy
Stream size : 15.9 MiB (6%)
Default : Yes
Alternate group : 1

Leave a Reply

Your email address will not be published.