Skip to main content

[FaderPro] Fader Pro – Nicky Romero (Digital Music Masterclass)

Nicky Romero went from a young musical prodigy to one of the most influential artists of his time. As a DJ, producer and mogul whose label is at the forefront of modern electronic dance music, it goes without saying that Nicky is a force to be reckoned with.
Summary Nicky boasts an impressive and lengthy discography of originals, remixes, edits and collaborations, proving time and again his ability to evolve in the ever-changing landscape of electronic music.
Perhaps more telling of his sharp craftsmanship and visionary thinking is the success and influence of his label (Protocol Recordings) with recent collaborations with David Guetta, Dimitri Vegas & Like Mike. From the stage to the studio and beyond, Nicky has left an indelible mark on electronic music.
Are we going to the studio with Nicky Romero? Do you want to come with us?

Content
Folders:
– Templates and Basics
Videos:
– 1. Introduction.mp4
– 2. Logic settings and template overview.mp4
– 3. Logic project settings.mp4
– 4. Tidying up.mp4
– 5. Introduction to Splice.mp4
– 6. Sidechain Compression.mp4
– 7 Shipping and Returning.mp4
– 8. Designing a Kick.mp4
– 9. Shaping the Sound.mp4
– 10. Building a Beat.mp4
– 11. Layered
Drums.mp4 – 12. Cymbals.mp4
– 13. Sampling in Logic.mp4
– 14 Creating a Hi-Hat.mp4
– 15. Introduction to Music Theory.mp4
– 16. Creating a Melody.mp4
– 17. More Melody.mp4
– 18. Writing a Bass Line.mp4
– 19. Designing a Lead.mp4
– 20. More Layers .mp4
– 21. Reverb.mp4
– 22. More Bass.mp4
– 23. Low-End Processing.mp4
– 24. Custom Risers and FX.mp4
– 25. Texture Techniques.mp4
– 26. Introduction to Mastering.mp4
– 27. Introduction in Part 2.mp4
– 28. Viewing the track.mp4
– 29. Arrangement for an audience.mp4
– 30. Second drop.mp4
– 31. Sculpting intro.mp4
– 32. Building the bass line.mp4
– 33. Breathing room.mp4
– 34. Automation and
tension.mp4 – 35. Completing the assembly.mp4
– 36. The second breakdown.mp4
– 37. FX and more.mp4
– 38. Building the
snare.mp4 – 39. Composing the outro.mp4
– 40. Cutting radio edited.mp4
– 41. Introduction to part 3.mp4
– 42. Getting started.mp4
– 43. Master circuit.mp4
– 44. Rejection of the first demo.mp4
– 45. Studio monitoring.mp4
– 46. Preparation for mixing.mp4
– 47. Mixing rules and prohibitions.mp4
– 48. Launching Mixdown.mp4
– 49. Synthesizer settings and automation.mp4
– 50. Further settings and processing.mp4
– 51. Effect processing.mp4
– 52. Percussion optimization and other settings.mp4
– 53 .Return to the Master Circuit.mp4
– 54. Last Steps.mp4
– 55. Conclusion.mp4
 
General
Complete name : 1. Introduction.mp4
Format : MPEG-4
Format profile : Base Media
Codec ID : isom (isom/iso2/avc1/mp41)
File size : 152 MiB
Duration : 5 min 36 s
Overall bit rate : 3 780 kb /s
Writing application : Lavf58.22.100
Video
ID : 1
Format : AVC
Format/Info : Advanced Video Codec
Format profile : [email protected]
Format settings : CABAC / 3 Ref Frames
Format settings, CABAC : Yes
Format settings, Reference : 3 frames
Codec ID : avc1
Codec ID/ Info : Advanced Video Coding
Duration : 5 min 36 s
Source duration : 5 min 36 s
Bit rate : 3 582 kb/s
Width : 1 920 pixels
Height : 1 080 pixels
Display aspect ratio : 16:9
Frame rate mode : Variable
Frame rate : 23.598 FPS
Minimum frame rate : 12.500 FPS
Maximum frame rate : 50.000 FPS
Color space : YUV
Chroma subsampling : 4:2:0
Bit depth : 8 bits
Scan type : Progressive
Bits/(Pixel*Frame) : 0.073
Stream size : 144 MiB (95%)
Source stream size : 144 MiB (95%)
Color range : Limited
Color primaries : BT.709
Transfer characteristics : BT.709
Matrix coefficients : BT.709
mdhd_Duration : 336241
Codec configuration box : avcC
Audio
ID : 2
Format : AAC LC
Format/Info : Advanced Audio Codec Low Complexity
Codec ID : mp4a-40-2
Duration : 5 min 36 s
Bit rate mode : Constant
Bit rate : 192 kb/s
Channel(s) : 2 channels
Channel layout : LR
Sampling rate : 48.0 kHz
Frame rate : 46.875 FPS (1024 SPF)
Compression mode : Lossy
Stream size : 7.70 MiB (5%)
Default : Yes
Alternate group : 1

Leave a Reply

Your email address will not be published.