Skip to main content

FaderPro – In The Studio W/ RODG

Do you want to get signed to a big label but feel like your tracks aren’t quite cutting it? Learn from Armada’s secret weapon as RODG shows you his techniques in Ableton Live.
Armada’s secret weapon is back for another FaderPro course, courtesy of Armada University. As one of the most celebrated and supported producers in the Armada Music camp, Rodg returns to show you exactly how he creates a track from scratch. Using Ableton Live, you will get exclusive insight into how world-class producers make the records that labels can’t wait to sign. Watch, learn and understand the creative choices and technical processes that Rodg uses to craft his floor-filling signature sound.

Content:
Folders:
– Project Files
Videos:
– 1. Creating the Drums.mp4
– 2. Creating the Bassline.mp4
– 3. Layering the Bassline.mp4
– 4. Adding Melodic Pieces.mp4
– 5. Break Melodies, Pads and Arpeggios.mp4
– 6. Bass Pad Melody.mp4
– 7. Developing the Melody.mp4
– 8. Refining the Melodic Elements.mp4
– 9. Adding Vocal Elements.mp4
– 10. Starting the Arrangement.mp4
– 11. Arrangement Part 2.mp4
– 12. Percussion.mp4
– 13. Percussion Part 2.mp4
– 14. Adding FX.mp4
– 15. FX Part 2.mp4
– 16. FX Part 3.mp4
– 17. Finishing.mp4
– 18. Finishing Part 2.mp4
– 19. Finishing Part 3.mp4
– 20. Finishing Part 4.mp4
– 21. Walkthrough and Basic Mastering.mp4
 
mediainfo
General
Complete name :1. Creating the Drums.mp4
Format : MPEG-4
Format profile : Base Media / Version 2
Codec ID : mp42 (mp42)
File size : 118 MiB
Duration : 7 min 34 s
Overall bit rate : 2 188 kb/s
Codirector : codirector
Production studio : studio
ContentType : Unknown Type
Encoded date : UTC 2019-06-12 19:31:37
Tagged date : UTC 2019-06-12 19:31:37
Video
ID : 1
Format : AVC
Format/Info : Advanced Video Codec
Format profile : [email protected]
Format settings : CABAC / 2 Ref Frames
Format settings, CABAC : Yes
Format settings, Reference : 2 frames
Muxing mode : Container profile=Baseline @3.0
Codec ID : avc1
Codec ID/Info : Advanced Video Coding
Duration : 7 min 34 s
Bit rate : 2 012 kb/s
Width : 1 920 pixels
Height : 1 080 pixels
Display aspect ratio : 16:9
Frame rate mode : Constant
Frame rate : 25.000 FPS
Color space : YUV
Chroma subsampling : 4:2:0
Bit depth : 8 bits
Scan type : Progressive
Bits/(Pixel*Frame) : 0.039
Stream size : 109 MiB (92%)
Language : English
Codec configuration box : avcC
Audio
ID : 2
Format : AAC LC
Format/Info : Advanced Audio Codec Low Complexity
Codec ID : mp4a-40-2
Duration : 7 min 33 s
Bit rate mode : Constant
Bit rate : 170 kb/s
Channel(s) : 2 channels
Channel layout : LR
Sampling rate : 44.1 kHz
Frame rate : 43.066 FPS (1024 SPF)
Compression mode : Lossy
Stream size : 9.20 MiB (8%)
Title : Stereo
Language : English
Default : Yes
Alternate group : 1

Leave a Reply

Your email address will not be published.