Skip to main content

Fader Pro – Remixing with Dave Winnel

Welcome to over four hours of one-of-a-kind content from the incredible Dave Winnel and Armada University!
Following the success of his Beatport #1 hit (and 53rd most Shazamed song in Australia) “Smoke Machine,” Dave Winnel is a name you should familiarize yourself with. Having already collaborated with the legendary Armin Van Buuren on “The Race” and producing official remixes for Twenty One Pilots, David Guetta, Bastille, Anne-Marie, Clean Bandit, Hardwell, Axwell & Ingrosso, Adam Lambert, & Galantis, Dave has quickly proven himself to be one of the most promising up-and-coming acts in electronic music.
Content:
Folders:
– 1. Selecting the Remix Parts.mp4
– 2. Converting Audio Parts to MIDI.mp4
– 3. Creating the Drop.mp4
– 4. Piano Melody.mp4
– 5. Synths.mp4
– 6. Layer synths. mp4
– 7. Arranging the Drop and Break.mp4
– 8. Arrangement.mp4
– 9. Extra Drum Loops.mp4
– 10. Build-Up and Extra
Samples.mp4 – 11. Mixing.mp4
– 12. Pre-Master.mp4
– 13. Remix Version.mp4
– 14. Vocal Editing and Strings.mp4
– 15. Synth Sounds.mp4
– 16. Arrangement of the Breakdown.mp4
– 17. Percussion loops.mp4
– 18. Synth Risers.mp4
 
mediainfo
General
Complete name :1. Selecting the Remix Parts.mp4
Format : MPEG-4
Format profile : Base Media
Codec ID : isom (isom/iso2/avc1/mp41)
File size : 91.3 MiB
Duration : 8 min 4 s
Overall bit rate : 1 581 kb/s
Writing application : Lavf58.22.100
Video
ID : 1
Format : AVC
Format/Info : Advanced Video Codec
Format profile : [email protected]
Format settings : CABAC / 4 Ref Frames
Format settings, CABAC : Yes
Format settings, Reference : 4 frames
Codec ID : avc1
Codec ID/Info : Advanced Video Coding
Duration : 8 min 4 s
Bit rate : 1 384 kb/s
Width : 1 920 pixels
Height : 1 080 pixels
Display aspect ratio : 16:9
Frame rate mode : Constant
Frame rate : 25.000 FPS
Color space : YUV
Chroma subsampling : 4:2:0
Bit depth : 8 bits
Scan type : Progressive
Bits/(Pixel*Frame) : 0.027
Stream size : 79.9 MiB (87%)
Writing library : x264 core 152
Encoding settings : cabac=1 / ref=2 / deblock=1:0:0 / analyse=0x3:0x113 / me=hex / subme=6 / psy=1 / psy_rd=1.00:0.00 / mixed_ref =1 / me_range=16 / chroma_me=1 / trellis=1 / 8x8dct=1 / cqm=0 / deadzone=21,11 / fast_pskip=1 / chroma_qp_offset=-2 / threads=6 / lookahead_threads=1 / sliced_threads=0 / nr=0 / decimate=1 / interlaced=0 / bluray_compat=0 / constrained_intra=0 / bframes=16 / b_pyramid=2 / b_adapt=1 / b_bias=0 / direct=1 / weightb=1 / open_gop=0 / weightp= 1 / keyint=250 / keyint_min=25 / scenecut=40 / intra_refresh=0 / rc_lookahead=30 / rc=crf / mbtree=1 / crf=23.0 / qcomp=0.60 / qpmin=0 / qpmax=69 / qpstep=4 / ip_ratio=1.40 / aq=1:1.00
Codec configuration box : avcC
Audio
ID : 2
Format : AAC LC
Format/Info : Advanced Audio Codec Low Complexity
Codec ID : mp4a-40-2
Duration : 8 min 4 s
Bit rate mode : Constant
Bit rate : 192 kb/s
Channel(s) : 2 channels
Channel layout : LR
Sampling rate : 48.0 kHz
Frame rate : 46.875 FPS (1024 SPF)
Compression mode : Lossy
Stream size : 11.1 MiB (12%)
Default : Yes
Alternate group : 1

Leave a Reply

Your email address will not be published.