Skip to main content

Slate Academy – 808 Deep Dive (Masterclass)

– Get 60 incredible custom 808s, plus 3 Raw TR-808 samples to create your own 808 samples
. – Learn the tricks to get powerful low frequencies in your beats without overwhelming your mix.
– We’ll show you how to find kick drums and 808s that produce clean, massive low frequencies.
– Learn tips on EQ, compression, arranging and more – in less than 30 minutes
– Learn professional sound design techniques to create your own 808s and signature beats.

Requirements: ANA 2 v2.0.93 or later

Content
ENG
– Get 60 incredible custom 808s, plus 3 Raw TR-808 samples to create your own 808 samples
– Learn the tricks to getting massive low end in your beats without overloading your mix
– We’ll show you how to find kicks & 808s that create clean, massive low end
– Learn tips on EQ, compression, arrangement and more—all in less than 30 minutes
– Learn pro sound design techniques to create your own 808s and signature beats.

Requirements: ANA 2 v2.0.93 or later
Content:
Folders:
– Custom 808 Samples
– Project Files
Videos:
– 1. Introduction.mp4
– 2. What is an 808.mp4
– 3. Sample Selection.mp4
– 4. ANA2 Sampler.mp4
– 5. Production Techniques.mp4
– 6. Clean Attacks.mp4
– 7. Consistent Low End.mp4
– 8. EQTricks.mp4
– 9. Sidechain Comp.mp4
– 10. Small Speaker Tips.mp4
– 11. Sound Design Tips.mp4
 
mediainfo
General
Complete name : 1. Introduction.mp4
Format : MPEG-4
Format profile : Base Media / Version 2
Codec ID : mp42 (mp42/mp41)
File size : 19.5 MiB
Duration : 47 s 900 ms
Overall bit rate mode : Variable
Overall bit rate : 3 423 kb/s
Encoded date : UTC 2020-06-02 16:36:46
Tagged date : UTC 2020-06-02 16:38:34
TIM : 00:00:00:00
TSC : 30
TSZ : 1
Video
ID : 1
Format : AVC
Format/Info : Advanced Video Codec
Format profile : [email protected]
Format settings : CABAC / 2 Ref Frames
Format settings, CABAC : Yes
Format settings, Reference : 2 frames
Format settings, GOP : M= 1, N=60
Codec ID : avc1
Codec ID/Info : Advanced Video Coding
Duration : 47 s 900 ms
Bit rate mode : Variable
Bit rate : 2 953 kb/s
Maximum bit rate : 768 kb/s
Width : 1 920 pixels
Height : 1080 pixels
Display aspect ratio : 16:9
Frame rate mode : Constant
Frame rate : 30.000 FPS
Color space : YUV
Chroma subsampling : 4:2:0
Bit depth : 8 bits
Scan type : Progressive
Bits/(Pixel*Frame) : 0.047
Stream size : 16.9 MiB (86%)
Language : English
Encoded date : UTC 2020-06-02 16:36:46
Tagged date : UTC 2020- 06-02 16:36:46
Color range : Limited
Color primaries : BT.709
Transfer characteristics : BT.709
Matrix coefficients : BT.709
Codec configuration box : avcC
Audio
ID : 2
Format : AAC LC
Format/Info : Advanced Audio Codec Low Complexity
Codec ID : mp4a-40-2
Duration : 47 s 900 ms
Source duration : 47 s 936 ms
Bit rate mode : Variable
Bit rate : 317 kb/s
Maximum bit rate : 461 kb/s
Channel(s) : 2 channels
Channel layout : LR
Sampling rate : 48.0 kHz
Frame rate : 46.875 FPS (1024 SPF)
Compression mode : Lossy
Stream size : 1.81 MiB (9%)
Source stream size : 1.81 MiB (9%)
Language : English
Encoded date : UTC 2020-06-02 16:36:47
Tagged date : UTC 2020-06-02 16:36:47

Leave a Reply

Your email address will not be published.